Notice: We Changed Our Main Domain. Please Use Our New Domain www.Download4u.Fun For Visit And Bookmark us.

The Jurassic Games 2018 English Movie 720p WEB-DL DD 5.1 x264 1.3GB MKV

…..:: Basic Info ::…..

General
Format : Matroska
Format version : Version 4 / Version 2
File size : 1.68 GiB
Duration : 1 h 26 min
Overall bit rate : 2 798 kb/s

Video
ID : 1
Format : AVC
Format/Info : Advanced Video Codec
Format profile : [email protected] Format settings : CABAC / 4 Ref Frames
Format settings, CABAC : Yes
Format settings, RefFrames : 4 frames
Codec ID : V_MPEG4/ISO/AVC
Duration : 1 h 26 min
Bit rate : 2 500 kb/s
Width : 1 920 pixels
Height : 798 pixels
Display aspect ratio : 2.40:1
Frame rate mode : Constant
Frame rate : 24.000 FPS
Color space : YUV
Chroma subsampling : 4:2:0
Bit depth : 8 bits
Scan type : Progressive
Bits/(Pixel*Frame) : 0.068
Stream size : 1.45 GiB (86%)
Writing library : x264 core 155 r2901 7d0ff22
Default : Yes
Forced : No

Audio
ID : 3
Format : AC-3
Format/Info : Audio Coding 3
Codec ID : A_AC3
Duration : 1 h 26 min
Bit rate mode : Constant
Bit rate : 384 kb/s
Channel(s) : 6 channels
Channel positions : Front: L C R, Side: L R, LFE
Sampling rate : 48.0 kHz
Frame rate : 31.250 FPS (1536 SPF)
Bit depth : 16 bits
Compression mode : Lossy
Stream size : 236 MiB (14%)
Language : English
Service kind : Complete Main
Default : Yes
Forced : No

…..:: Screenshooot ::…..

…..:: Direct Download Single Links ::…..

BDUpload Link

Indishare Link

Desiupload Link

Clicknupload Link

Uploadbaz Link

Cloudyfiles Link

Uptobox Link

Filescdn Link

Download4U.In Entertainment Team [DET]

You may also like